<?xml version="1.0" standalone="no"?>
<!DOCTYPE svg PUBLIC "-//W3C//DTD SVG 1.1//EN" "http://www.w3.org/Graphics/SVG/1.1/DTD/svg11.dtd" >
<svg xmlns="http://www.w3.org/2000/svg" xmlns:xlink="http://www.w3.org/1999/xlink" version="1.1">
<metadata></metadata>
<defs>
<font id="fira_monoregular" horiz-adv-x="1228" >
<font-face units-per-em="2048" ascent="1608" descent="-440" />
<missing-glyph horiz-adv-x="500" />
<glyph horiz-adv-x="0" />
<glyph unicode="&#xd;" />
<glyph unicode=" " />
<glyph unicode="!" d="M477 115q0 55 39 95t96 40q58 0 98 -40t40 -95q0 -57 -39 -97.5t-99 -40.5q-57 0 -96 39t-39 99zM514 1409h191l-17 -944h-153z" />
<glyph unicode="&#x22;" d="M336 1513h215l-33 -532h-149zM678 1513h215l-33 -532h-149z" />
<glyph unicode="#" d="M109 348v131h180l61 455h-166v133h185l45 342h145l-49 -342h303l45 342h146l-50 -342h166v-133h-182l-61 -455h167v-131h-186l-43 -348h-145l45 348h-299l-45 -348h-146l47 348h-163zM434 479h299l62 455h-301z" />
<glyph unicode="$" d="M141 172l103 113q145 -147 325 -162v569q-184 61 -279 155.5t-95 233.5q0 84 42 160t127 126t205 63v307h140v-307q112 -13 208.5 -57t165.5 -107l-104 -109q-115 109 -270 131v-469q178 -57 284.5 -157.5t106.5 -274.5q0 -154 -101.5 -265.5t-289.5 -135.5v-299h-140 v293q-133 8 -240.5 61t-187.5 131zM377 1083q0 -74 42 -124t150 -95v420q-88 -16 -140 -66.5t-52 -134.5zM709 131q206 43 206 254q0 90 -46 151.5t-160 108.5v-514z" />
<glyph unicode="%" d="M39 1104q0 139 82 234.5t219 95.5q139 0 220 -95.5t81 -234.5q0 -88 -36 -164t-104.5 -121t-160.5 -45t-160.5 45t-104.5 121t-36 164zM66 31l970 1417l109 -72l-973 -1417zM197 1104q0 -98 39.5 -154.5t103.5 -56.5q66 0 104.5 53t38.5 158q0 106 -38.5 156.5 t-104.5 50.5q-64 0 -103.5 -52.5t-39.5 -154.5zM590 319q0 137 82 232.5t221 95.5q137 0 218 -95t81 -233q0 -88 -36 -163.5t-103.5 -121.5t-159.5 -46t-161.5 46t-105.5 121.5t-36 163.5zM748 319q0 -98 40.5 -154t104.5 -56q66 0 103.5 52t37.5 158t-38 155.5t-103 49.5 q-66 0 -105.5 -51t-39.5 -154z" />
<glyph unicode="&#x26;" d="M111 399q0 158 82.5 259.5t238.5 134.5v6q-131 31 -189.5 109.5t-58.5 185.5q0 90 47.5 167.5t135.5 124t204 46.5q99 0 181 -34t161 -120l-102 -92q-55 61 -111.5 89t-130.5 28q-106 0 -161.5 -56.5t-55.5 -152.5q0 -61 34 -115.5t91.5 -87.5t126.5 -33h570v-133h-183 v-559q-61 -76 -163.5 -132.5t-262.5 -56.5q-152 0 -254 59.5t-151 156t-49 206.5zM276 406q0 -123 74 -207t221 -84q84 0 154 28.5t111 79.5v502h-256q-101 0 -169.5 -47t-101.5 -121t-33 -151z" />
<glyph unicode="'" d="M508 1513h213l-31 -532h-151z" />
<glyph unicode="(" d="M256 717q0 227 60.5 401t174 315.5t293.5 286.5l88 -94q-158 -139 -251 -264t-140 -279.5t-47 -365.5q0 -209 47 -364.5t141.5 -281.5t249.5 -264l-88 -94q-180 145 -293.5 286.5t-174 315.5t-60.5 402z" />
<glyph unicode=")" d="M356 -193q156 137 250 263.5t141.5 282t47.5 364.5q0 211 -47.5 365.5t-140.5 279.5t-251 264l88 94q180 -145 294 -286.5t174.5 -315.5t60.5 -401t-60.5 -401.5t-174 -315.5t-294.5 -287z" />
<glyph unicode="*" d="M197 707l53 163l307 -129l-29 336h172l-30 -336l311 129l51 -163l-323 -74l225 -246l-139 -106l-179 288l-165 -293l-146 97l219 260z" />
<glyph unicode="+" d="M238 565v144h294v305h160v-305h299v-144h-299v-303h-160v303h-294z" />
<glyph unicode="," d="M420 -367l98 404q-31 23 -49 59.5t-18 75.5q0 68 47 116t116 48q70 0 118 -48t48 -116q0 -76 -41 -158l-166 -381h-153z" />
<glyph unicode="-" d="M256 567v148h717v-148h-717z" />
<glyph unicode="." d="M434 158q0 73 51.5 125.5t126.5 52.5q78 0 129.5 -52.5t51.5 -125.5q0 -78 -51.5 -129.5t-129.5 -51.5q-76 0 -127 51.5t-51 129.5z" />
<glyph unicode="/" d="M109 -150l876 1807l135 -66l-874 -1802z" />
<glyph unicode="0" d="M154 707q0 352 117.5 539.5t342.5 187.5q226 0 343.5 -187.5t117.5 -539.5q0 -354 -117.5 -542t-343.5 -188q-225 0 -342.5 187.5t-117.5 542.5zM332 707q0 -592 282 -592q283 0 283 592q0 588 -283 587q-282 1 -282 -587zM481 707q0 55 38 94t95 39q58 0 97 -39t39 -94 q0 -57 -39 -96.5t-97 -39.5q-57 0 -95 39t-38 97z" />
<glyph unicode="1" d="M197 1151l417 258h150v-1270h295v-139h-813v139h348v1086l-324 -195z" />
<glyph unicode="2" d="M121 1231q86 104 188.5 153.5t241.5 49.5q131 0 226 -51.5t146.5 -141.5t51.5 -203q0 -129 -60.5 -251.5t-193.5 -271t-377 -370.5h664l-21 -145h-837v139q279 266 411.5 414.5t184 255t51.5 225.5t-66.5 187.5t-185.5 68.5q-100 0 -168 -33.5t-137 -115.5z" />
<glyph unicode="3" d="M106 164l115 94q57 -70 141 -105.5t173 -35.5q147 0 231 77.5t84 211.5q0 268 -293 268h-119l21 135h84q111 0 189.5 63.5t78.5 184.5q0 113 -76 176t-192 63q-88 0 -157 -31.5t-142 -99.5l-92 105q170 164 399 164q129 0 227.5 -48.5t151.5 -129t53 -177.5 q0 -123 -80 -214t-196 -113q135 -10 228 -100.5t93 -245.5q0 -121 -61.5 -218.5t-173 -154t-254.5 -56.5q-125 0 -241 46.5t-192 140.5z" />
<glyph unicode="4" d="M147 344v123l416 967l142 -62l-377 -893h407l15 402h149v-402h182v-135h-182v-344h-166v344h-586z" />
<glyph unicode="5" d="M160 145l104 103q66 -68 139.5 -99.5t165.5 -31.5q141 0 218 85t77 249q0 162 -68.5 232.5t-185.5 70.5q-59 0 -106 -11.5t-115 -35.5h-137v702h745l-26 -135h-557v-447q61 35 119.5 48.5t123.5 13.5q176 0 280.5 -117t104.5 -326q0 -139 -58 -245.5t-165.5 -165 t-251.5 -58.5q-236 0 -407 168z" />
<glyph unicode="6" d="M164 666q0 233 62.5 406t179 267.5t280.5 94.5q154 0 279 -84l-66 -115q-100 59 -215 59q-162 0 -254 -152.5t-96 -414.5q66 100 149.5 145.5t190.5 45.5q112 0 202.5 -49.5t143.5 -148.5t53 -245q0 -152 -58.5 -265.5t-159.5 -173t-224 -59.5q-246 0 -356.5 178.5 t-110.5 510.5zM336 578q4 -242 73.5 -352.5t221.5 -110.5q131 0 199.5 93t68.5 261q0 166 -64.5 237.5t-185.5 71.5q-98 0 -177 -53t-136 -147z" />
<glyph unicode="7" d="M201 1268v141h833v-129l-563 -1298l-158 47l549 1239h-661z" />
<glyph unicode="8" d="M135 375q0 238 283 368q-115 53 -170 130t-55 192q0 121 64.5 205t161.5 124t195 40q109 0 205 -39t156.5 -120t60.5 -200q0 -100 -60.5 -176t-182.5 -143q141 -59 221 -155.5t80 -221.5q0 -115 -59.5 -207t-169 -143.5t-255.5 -51.5q-147 0 -254.5 52.5t-164 142.5 t-56.5 203zM313 375q0 -123 76 -191.5t221 -68.5q143 0 224 72.5t81 187.5q0 90 -46 146.5t-117.5 89t-216.5 83.5q-100 -45 -161 -120.5t-61 -198.5zM360 1063q0 -78 36 -125t96.5 -73.5t179.5 -65.5q104 59 150 117.5t46 150.5q0 109 -66.5 171t-187.5 62t-187.5 -62 t-66.5 -175z" />
<glyph unicode="9" d="M137 967q0 147 60.5 251.5t163 159t231.5 54.5q229 0 344 -143.5t115 -401.5q0 -299 -76 -474t-233.5 -275.5t-440.5 -180.5l-39 129q301 82 454.5 221t155.5 385q-51 -76 -139 -125t-201 -49q-115 0 -204.5 54.5t-140 156.5t-50.5 238zM313 961q0 -156 65.5 -232 t186.5 -76q99 0 173.5 50.5t138.5 144.5q2 244 -66 344t-219 100q-137 0 -208 -84t-71 -247z" />
<glyph unicode=":" d="M449 143q0 68 47 116t116 48q70 0 118 -48t48 -116q0 -70 -47 -118t-119 -48q-70 0 -116.5 47.5t-46.5 118.5zM449 883q0 67 47 115.5t116 48.5q70 0 118 -48.5t48 -115.5q0 -70 -48 -119t-118 -49t-116.5 49t-46.5 119z" />
<glyph unicode=";" d="M416 -369l98 406q-31 23 -48 59.5t-17 77.5q0 68 47 116t116 48q70 0 118 -48t48 -116q0 -74 -39 -160l-168 -383h-155zM449 883q0 68 47 116t116 48q70 0 118 -48.5t48 -115.5q0 -70 -48 -119t-118 -49t-116.5 49t-46.5 119z" />
<glyph unicode="&#x3c;" d="M180 555v174l787 488l84 -132l-725 -444l725 -448l-93 -125z" />
<glyph unicode="=" d="M217 369v147h795v-147h-795zM217 758v147h795v-147h-795z" />
<glyph unicode="&#x3e;" d="M180 195l725 446l-725 446l84 130l787 -488v-174l-779 -487z" />
<glyph unicode="?" d="M184 1231q172 203 428 203q121 0 213.5 -45.5t141.5 -118t49 -154.5q0 -78 -25.5 -132t-63.5 -90t-102 -81q-88 -66 -133 -123t-45 -155v-70h-172v80q0 84 28.5 145.5t70.5 101t108 89.5q82 63 120 109t38 116q0 86 -67.5 135t-176.5 49q-76 0 -152.5 -36.5 t-138.5 -112.5zM432 115q0 55 39 95t96 40q58 0 98 -40t40 -95q0 -57 -39 -97.5t-99 -40.5q-57 0 -96 39t-39 99z" />
<glyph unicode="@" d="M18 1208q133 115 276.5 170.5t287.5 55.5q358 0 487 -234.5t129 -615.5q0 -274 -24.5 -439t-89 -248t-185.5 -83q-80 0 -135 49t-82 117.5t-25 125.5h-8q-82 -201 -280 -200q-158 0 -233 127t-75 344q0 262 103.5 394t298.5 132q76 0 140.5 -16.5t146.5 -59.5v-604 q0 -154 38.5 -212t106.5 -58q61 0 89 79t34 201.5t6 348.5q0 219 -34 370.5t-131 241.5t-275 90q-117 0 -230.5 -41t-234.5 -147zM225 377q0 -162 38 -252t126 -90q92 0 136 51t77 129v533q-59 31 -131 30q-137 0 -191.5 -97t-54.5 -304z" />
<glyph unicode="A" d="M43 0l459 1409h225l459 -1409h-185l-112 360h-559l-115 -360h-172zM375 506h469l-234 756z" />
<glyph unicode="B" d="M199 0v1409h346q213 0 355 -82t142 -272q0 -127 -74.5 -205t-187.5 -102q324 -55 324 -347q0 -213 -151.5 -307t-377.5 -94h-376zM373 145h235q129 0 220.5 54.5t91.5 195.5q0 150 -82 209.5t-222 59.5h-243v-519zM373 809h229q260 0 260 235q0 224 -276 224h-213v-459z " />
<glyph unicode="C" d="M131 707q0 229 81 394t218 249t303 84q133 0 226.5 -34t181.5 -104l-99 -114q-127 104 -297 104q-193 0 -312.5 -138t-119.5 -441q0 -299 118 -439.5t312 -140.5q106 0 183.5 31.5t144.5 87.5l90 -117q-70 -68 -174 -110t-246 -42q-174 0 -312 85t-218 249t-80 396z" />
<glyph unicode="D" d="M172 0v1409h299q295 0 477 -148.5t182 -547.5q0 -402 -183 -557.5t-453 -155.5h-322zM346 141h170q184 0 306 126t122 446q0 229 -62.5 351t-155.5 162t-212 40h-168v-1125z" />
<glyph unicode="E" d="M258 0v1409h799l-21 -143h-602v-478h522v-145h-522v-502h641v-141h-817z" />
<glyph unicode="F" d="M285 0v1409h829l-22 -143h-633v-496h553v-141h-553v-629h-174z" />
<glyph unicode="G" d="M94 707q0 233 82 397t217 247t291 83q131 0 222 -38t179 -118l-106 -111q-66 59 -136.5 88t-158.5 29q-174 0 -288.5 -138t-114.5 -439q0 -303 94 -442.5t282 -139.5q147 0 271 68v432h-279l-20 145h473v-672q-111 -59 -216.5 -90t-242.5 -31q-256 0 -402.5 185.5 t-146.5 544.5z" />
<glyph unicode="H" d="M172 0v1409h174v-596h537v596h174v-1409h-174v672h-537v-672h-174z" />
<glyph unicode="I" d="M211 0v141h315v1129h-315v139h807v-139h-316v-1129h316v-141h-807z" />
<glyph unicode="J" d="M150 104l77 117q156 -98 308 -98q145 0 226 94t81 260v789h-418v143h592v-942q0 -205 -112.5 -348.5t-366.5 -143.5q-104 0 -205 33t-182 96z" />
<glyph unicode="K" d="M217 0v1409h174v-1409h-174zM401 754l557 655h203l-553 -645l592 -764h-219z" />
<glyph unicode="L" d="M279 0v1409h176v-1251h643l-21 -158h-798z" />
<glyph unicode="M" d="M63 0l80 1409h246l229 -965l220 965h247l80 -1409h-168l-45 739q-12 233 -12 469h-4l-234 -954h-178l-241 954h-9q0 -293 -8 -469l-39 -739h-164z" />
<glyph unicode="N" d="M172 0v1409h238l499 -1212h9q-25 295 -25 505v707h164v-1409h-246l-492 1206h-8q25 -319 25 -497v-709h-164z" />
<glyph unicode="O" d="M96 700q0 217 59.5 382t175 258.5t283.5 93.5q250 0 384.5 -198t134.5 -531q0 -330 -134.5 -529t-384.5 -199q-252 0 -385 195t-133 528zM279 700q0 -285 81.5 -430t253.5 -145q174 0 255 145.5t81 434.5q0 288 -79.5 433.5t-256.5 145.5q-176 0 -255.5 -146.5 t-79.5 -437.5z" />
<glyph unicode="P" d="M240 0v1409h356q258 0 401.5 -108.5t143.5 -323.5q0 -236 -145.5 -344.5t-399.5 -108.5h-182v-524h-174zM414 666h198q162 0 251 69.5t89 239.5q0 295 -334 295h-204v-604z" />
<glyph unicode="Q" d="M94 700q0 217 59.5 382t176 258.5t284.5 93.5q250 0 384.5 -198t134.5 -531q0 -236 -67 -400t-214 -252q141 -29 225 -105.5t135 -228.5l-186 -73q-70 174 -164 255t-268 81q-240 0 -370 193.5t-130 524.5zM276 700q0 -285 83 -430t255 -145q174 0 255 145.5t81 434.5 q0 288 -81 434.5t-255 146.5q-176 0 -257 -147.5t-81 -438.5z" />
<glyph unicode="R" d="M209 0v1409h360q262 0 396.5 -99.5t134.5 -293.5q0 -154 -95.5 -253t-250.5 -136l420 -627h-211l-385 606h-193v-606h-176zM385 743h207q158 0 238.5 64.5t80.5 208.5q0 133 -77.5 193.5t-243.5 60.5h-205v-527z" />
<glyph unicode="S" d="M90 156l105 118q78 -74 173 -111.5t220 -37.5q137 0 232 67.5t95 194.5q0 72 -26.5 119t-93 84t-189.5 74q-229 68 -341.5 158.5t-112.5 248.5q0 104 57 187t161.5 129.5t237.5 46.5q139 0 248 -41t201 -121l-105 -115q-143 129 -340 129q-123 0 -202.5 -54t-79.5 -157 q0 -61 32.5 -104t109.5 -80t214 -76q197 -57 304.5 -149.5t107.5 -274.5q0 -123 -60.5 -216t-177.5 -145.5t-276 -52.5q-152 0 -278 46.5t-216 132.5z" />
<glyph unicode="T" d="M82 1260v149h1063l-19 -149h-428v-1260h-174v1260h-442z" />
<glyph unicode="U" d="M150 457v952h174v-960q0 -160 74.5 -240t213.5 -80q141 0 216 80t75 240v960h176v-952q0 -144 -57 -252.5t-162.5 -168t-247.5 -59.5q-141 0 -246.5 60.5t-160.5 169t-55 250.5z" />
<glyph unicode="V" d="M51 1409h189l378 -1208l383 1208h177l-473 -1409h-181z" />
<glyph unicode="W" d="M10 1409h176l146 -1198h8l168 1034h217l156 -1026h8l168 1190h162l-215 -1409h-232l-158 1034h-8l-160 -1034h-237z" />
<glyph unicode="X" d="M63 0l445 752l-406 657h201l311 -543l312 543h190l-401 -647l450 -762h-202l-353 639l-358 -639h-189z" />
<glyph unicode="Y" d="M49 1409h195l374 -707l379 707h183l-478 -864v-545h-176v543z" />
<glyph unicode="Z" d="M147 0v143l746 1117h-672v149h860v-143l-741 -1114h739l-20 -152h-912z" />
<glyph unicode="[" d="M377 -236v1905h512v-145h-350v-1616h350v-144h-512z" />
<glyph unicode="\" d="M109 1591l135 66l876 -1807l-137 -61z" />
<glyph unicode="]" d="M340 -92h350v1616h-350v145h512v-1905h-512v144z" />
<glyph unicode="^" d="M152 1079l387 639h151l387 -639h-186l-279 488l-278 -488h-182z" />
<glyph unicode="_" d="M-14 -223h1257v-148h-1257v148z" />
<glyph unicode="`" d="M379 1464l90 148l379 -240l-55 -94z" />
<glyph unicode="a" d="M141 309q0 166 130 256t376 90h158v90q0 113 -65.5 163t-190.5 50q-129 0 -281 -53l-45 127q186 70 350 70q197 0 300.5 -92t103.5 -256v-521q0 -61 20.5 -91.5t67.5 -45.5l-41 -121q-154 20 -197 154q-57 -74 -144 -113t-194 -39q-162 0 -255 90.5t-93 241.5zM324 311 q0 -205 208 -205q80 0 153 40t120 114v279h-156q-172 0 -248.5 -58.5t-76.5 -169.5z" />
<glyph unicode="b" d="M207 0v1513l170 21v-596q59 80 137 122t170 42q209 0 307.5 -147.5t98.5 -413.5q0 -254 -113 -409t-315 -155q-190 0 -293 136l-13 -113h-149zM377 254q43 -66 107.5 -102.5t138.5 -36.5q137 0 208.5 106.5t71.5 319.5q0 211 -64.5 317.5t-191.5 106.5 q-84 0 -152.5 -49.5t-117.5 -124.5v-537z" />
<glyph unicode="c" d="M188 535q0 164 60.5 291.5t174.5 201.5t271 74q205 0 361 -127l-86 -117q-133 100 -277 100q-145 0 -232 -108.5t-87 -314.5q0 -207 87 -309.5t232 -102.5q154 0 283 102l82 -119q-70 -59 -169.5 -94t-195.5 -35q-238 0 -371 151t-133 407z" />
<glyph unicode="d" d="M139 537q0 164 51.5 291.5t146.5 200.5t226 73q178 0 289 -129v561l170 -21v-1513h-150l-16 141q-117 -164 -305 -164q-205 0 -308.5 149.5t-103.5 410.5zM326 539q0 -209 66.5 -316.5t193.5 -107.5q156 0 266 170v540q-43 66 -107.5 103t-138.5 37q-137 0 -208.5 -107.5 t-71.5 -318.5z" />
<glyph unicode="e" d="M162 539q0 162 57 289.5t162.5 200.5t243.5 73q209 0 326.5 -142.5t117.5 -388.5q0 -47 -4 -92h-725q6 -180 94 -270t221 -90q164 0 289 100l80 -117q-76 -59 -173 -92t-196 -33q-233 0 -363 153t-130 409zM340 610h565q-2 172 -75.5 261.5t-202.5 89.5 q-121 0 -199 -89.5t-88 -261.5z" />
<glyph unicode="f" d="M193 860v135h258v215q0 145 110.5 234.5t280.5 89.5q154 0 293 -59l-56 -127q-100 47 -231 47q-227 0 -227 -181v-219h366l-18 -135h-348v-860h-170v860h-258z" />
<glyph unicode="g" d="M135 -109h154q0 -68 25.5 -107.5t90 -59t183.5 -19.5q176 0 260 44t84 134q0 74 -68.5 115t-175.5 41h-192q-133 0 -203 58.5t-70 144.5q0 51 31 101t88 87q-92 47 -136 120t-44 177q0 109 54 194t151.5 133t224.5 48q186 0 282.5 20.5t206.5 69.5l54 -162 q-64 -18 -137.5 -24.5t-178.5 -6.5q188 -86 189 -270q0 -164 -108.5 -266.5t-297.5 -102.5q-90 0 -162 23q-25 -18 -40 -47t-15 -60q0 -90 143 -90h195q106 0 193.5 -38.5t137.5 -105.5t50 -148q0 -158 -134 -243t-380 -85q-170 0 -269.5 34.5t-142.5 105.5t-43 185z M336 727q0 -115 65.5 -183.5t192.5 -68.5q115 0 175 66.5t60 187.5q0 123 -60 185.5t-179 62.5q-125 0 -189.5 -67.5t-64.5 -182.5z" />
<glyph unicode="h" d="M207 0v1509l170 21v-600q61 82 153.5 127t190.5 45q303 0 303 -320v-782h-170v780q0 96 -45 141.5t-141 45.5q-86 0 -165 -54.5t-126 -126.5v-786h-170z" />
<glyph unicode="i" d="M248 0v135h334v809h-324v133h494v-942h303v-135h-807zM492 1462q0 51 34.5 86t87.5 35q56 0 90.5 -35t34.5 -86q0 -53 -34.5 -87t-90.5 -34q-53 0 -87.5 34t-34.5 87z" />
<glyph unicode="j" d="M197 -303q260 43 402 150.5t142 312.5v784h-450v133h620v-907q0 -260 -174 -403.5t-512 -200.5zM629 1462q0 51 33.5 86t89.5 35q55 0 90 -35t35 -86q0 -53 -35 -87t-90 -34t-89 34t-34 87z" />
<glyph unicode="k" d="M217 0v1513l170 21v-1534h-170zM408 590l479 487h221l-487 -485l544 -592h-225z" />
<glyph unicode="l" d="M123 1378v135h502v-1249q0 -145 178 -145q86 0 182 37l45 -123q-102 -55 -256 -56q-143 0 -231 80t-88 217v1104h-332z" />
<glyph unicode="m" d="M104 0v1077h134l10 -125q51 72 105.5 111t129.5 39q152 0 195 -144q49 70 104.5 107t132.5 37q209 0 209 -299v-803h-157v774q0 113 -14.5 154t-69.5 41q-104 0 -189 -131v-838h-159v774q0 113 -14.5 154t-69.5 41q-104 0 -189 -131v-838h-158z" />
<glyph unicode="n" d="M207 0v1077h145l13 -149q66 82 162 128t194 46q303 0 303 -320v-782h-170v655q0 121 -12.5 185.5t-52 95.5t-119.5 31q-88 0 -167 -53.5t-126 -127.5v-786h-170z" />
<glyph unicode="o" d="M152 539q0 256 121.5 409.5t342.5 153.5q224 0 342.5 -150.5t118.5 -410.5q0 -254 -120.5 -409t-342.5 -155q-223 0 -342.5 151t-119.5 411zM334 539q0 -213 69.5 -317.5t210.5 -104.5t211 104.5t70 319.5q0 422 -279 422q-282 0 -282 -424z" />
<glyph unicode="p" d="M207 -434v1511h143l15 -149q61 84 143 129t180 45q205 0 297 -146.5t92 -414.5q0 -256 -106.5 -410t-308.5 -154q-176 0 -285 123v-514zM377 254q41 -63 106.5 -99t141.5 -36q135 0 202.5 103.5t67.5 318.5q0 213 -60.5 318.5t-187.5 105.5q-84 0 -152.5 -49.5 t-117.5 -124.5v-537z" />
<glyph unicode="q" d="M152 537q0 252 107.5 408.5t301.5 156.5q188 0 301 -141l15 116h145v-1511l-170 20v551q-115 -160 -303 -160q-397 0 -397 560zM334 539q0 -420 250 -420q84 0 152.5 46t115.5 120v540q-41 66 -106.5 103t-141.5 37q-270 0 -270 -426z" />
<glyph unicode="r" d="M193 0v135h251v809h-251v133h399l20 -207q47 113 129 172.5t183 59.5q74 0 141 -17l-31 -167q-70 18 -125 18q-104 0 -185 -86t-110 -205v-510h304v-135h-725z" />
<glyph unicode="s" d="M152 123l96 110q66 -53 149.5 -84.5t175.5 -31.5q123 0 196 47t73 125q0 53 -18.5 88t-75 63.5t-166.5 57.5q-188 47 -278.5 112.5t-90.5 196.5q0 135 112.5 215t295.5 80q229 0 391 -121l-76 -115q-68 47 -140.5 72t-170.5 25q-123 0 -179.5 -38t-56.5 -104 q0 -49 25.5 -79.5t85 -54t176.5 -56.5q176 -47 263 -120t87 -214q0 -162 -131 -241t-324 -79q-252 0 -419 146z" />
<glyph unicode="t" d="M164 946v131h248v246l170 20v-266h372l-20 -131h-352v-643q0 -92 49 -138t157 -46q109 0 207 51l66 -117q-55 -35 -134 -55.5t-155 -20.5q-170 0 -265 89.5t-95 234.5v645h-248z" />
<glyph unicode="u" d="M207 293v784h170v-764q0 -104 44 -152t138 -48q86 0 167 50t126 122v792h170v-1077h-145l-15 145q-61 -80 -154.5 -124t-189.5 -44q-154 0 -232.5 82t-78.5 234z" />
<glyph unicode="v" d="M125 1077h180l313 -921l310 921h176l-393 -1077h-197z" />
<glyph unicode="w" d="M37 1077h174l139 -946h8l164 809h203l154 -805h8l139 942h166l-188 -1077h-242l-139 774h-9l-145 -774h-236z" />
<glyph unicode="x" d="M115 0l399 569l-350 508h201l251 -401l254 401h195l-348 -499l397 -578h-209l-297 463l-299 -463h-194z" />
<glyph unicode="y" d="M127 1077h182l312 -948l305 948h176l-379 -1083q-66 -187 -174.5 -297.5t-304.5 -130.5l-27 137q109 18 173.5 55t102 93.5t68.5 148.5h-57z" />
<glyph unicode="z" d="M211 0v129l598 801h-551v147h756v-131l-596 -801h602l-23 -145h-786z" />
<glyph unicode="{" d="M240 649v135q178 0 245.5 42t67.5 132q0 27 -2 41l-41 394q-2 14 -2 41q0 150 115.5 213t300.5 63v-133q-125 0 -196 -38t-62 -126l43 -422q2 -16 2 -47q0 -102 -48.5 -155.5t-144.5 -71.5q100 -18 146.5 -68.5t46.5 -154.5q0 -33 -2 -52l-43 -422q-16 -164 258 -163 v-133q-184 0 -300 63t-116 213q0 27 2 41l41 391q2 14 2 39q0 92 -67.5 135t-245.5 43z" />
<glyph unicode="|" d="M537 -209v1862h153v-1862h-153z" />
<glyph unicode="}" d="M305 -143q274 0 258 163l-43 422q-2 18 -2 54q0 104 49 153t166 66q-111 20 -163 73.5t-52 155.5q0 31 2 47l43 422q8 88 -62.5 126t-195.5 38v133q184 0 300 -63.5t116 -212.5q0 -27 -2 -41l-41 -394q-2 -10 -2 -32q0 -92 71.5 -137.5t241.5 -45.5v-135 q-170 0 -241.5 -46t-71.5 -138q0 -23 2 -33l41 -391q2 -14 2 -41q0 -150 -116 -213t-300 -63v133z" />
<glyph unicode="~" d="M90 559q57 117 132 188.5t198 71.5q78 0 132 -31.5t116 -89.5q47 -43 78.5 -63.5t68.5 -20.5q106 0 203 174l121 -63q-59 -115 -134 -186.5t-196 -71.5q-70 0 -120 29.5t-118 87.5q-47 45 -81.5 66.5t-75.5 21.5q-61 0 -109.5 -46t-93.5 -128z" />
<glyph unicode="&#xa0;" />
<glyph unicode="&#xa1;" d="M477 883q0 59 39 98t96 39q58 0 98 -40t40 -97q0 -55 -40 -95t-98 -40q-57 0 -96 39.5t-39 95.5zM514 -403l25 938h147l25 -938h-197z" />
<glyph unicode="&#xa2;" d="M217 535q0 227 101.5 377.5t293.5 177.5v309h152v-307q139 -17 248 -105l-86 -113q-66 47 -120 65.5t-118 18.5q-137 0 -212 -107.5t-75 -315.5q0 -211 75 -311.5t212 -100.5q63 0 119.5 20.5t120.5 71.5l84 -121q-106 -90 -248 -106v-301h-154v301q-190 25 -291.5 168 t-101.5 379z" />
<glyph unicode="&#xa3;" d="M154 0v137q76 25 112.5 64t46 86t9.5 123v264h-168v119h168v264q0 109 47 193.5t134 134t206 49.5q239 -1 366 -177l-114 -88q-51 63 -110.5 92t-135.5 29q-109 0 -166 -63.5t-57 -186.5v-247h423v-119h-423v-256q0 -96 -27 -164t-100 -109h694l-21 -145h-884z" />
<glyph unicode="&#xa4;" d="M70 260l182 182q-72 111 -72 258q0 145 70 254l-180 185l110 110l182 -184q109 68 254 68q150 0 250 -68l183 182l110 -110l-178 -181q74 -111 74 -256q0 -143 -76 -260l180 -178l-110 -110l-187 180q-102 -66 -246 -66q-147 0 -254 66l-182 -182zM352 700 q0 -139 68.5 -216.5t195.5 -77.5t195 77.5t68 216.5t-68 217t-195 78t-195.5 -77.5t-68.5 -217.5z" />
<glyph unicode="&#xa5;" d="M82 1409h192l342 -647h9l342 647h180l-397 -702h245v-119h-290v-176h290v-119h-290v-293h-181v293h-286v119h286v176h-286v119h239z" />
<glyph unicode="&#xa6;" d="M537 -209v727h153v-727h-153zM537 926v727h153v-727h-153z" />
<glyph unicode="&#xa7;" d="M217 657q0 78 46 143.5t120 110.5q-121 92 -121 224q0 135 111.5 217t275.5 82q107 0 188 -29t154 -82l-82 -117q-68 45 -129 66.5t-143 21.5q-88 0 -142.5 -40t-54.5 -105q0 -49 20.5 -80t74 -58.5t159.5 -64.5q170 -57 242 -125.5t72 -185.5q0 -80 -45 -146.5 t-119 -111.5q123 -92 123 -221q0 -137 -109.5 -217t-286.5 -80q-203 0 -350 112l82 115q63 -45 129 -66.5t150 -21.5q90 0 147 40t57 105q0 47 -20.5 79t-73.5 58.5t-157 61.5q-172 59 -245 128t-73 187zM389 678q0 -57 25.5 -90t83 -59.5t202.5 -79.5q23 -6 41 -15 q47 41 73 87t26 91q0 57 -28 90t-89 59.5t-234 92.5q-49 -39 -74.5 -86t-25.5 -90z" />
<glyph unicode="&#xa8;" d="M291 1436q0 47 31.5 78.5t78.5 31.5t79 -31.5t32 -78.5q0 -45 -31.5 -77t-79.5 -32q-47 0 -78.5 31t-31.5 78zM715 1436q0 47 30.5 78.5t77.5 31.5q49 0 81 -31.5t32 -78.5t-32 -78t-81 -31q-45 0 -76.5 32t-31.5 77z" />
<glyph unicode="&#xa9;" d="M61 891q0 180 66 324.5t191.5 229.5t297.5 85q170 0 295 -85t190.5 -230.5t65.5 -323.5q0 -176 -65.5 -321.5t-190.5 -229.5t-295 -84q-172 0 -296.5 84t-191.5 229.5t-67 321.5zM174 891q0 -152 50 -271.5t149.5 -189.5t242.5 -70t242.5 70t149 189.5t49.5 271.5 t-49.5 273.5t-148.5 192t-243 70.5q-143 0 -242.5 -70.5t-149.5 -192.5t-50 -273zM291 893q0 123 45 210t120.5 132t166.5 45q77 0 130.5 -18.5t108.5 -61.5l-71 -96q-76 61 -162 61t-139.5 -66.5t-53.5 -205.5q0 -131 52.5 -197.5t140.5 -66.5q100 0 178 71l65 -98 q-109 -96 -247 -96q-150 0 -242 102.5t-92 284.5z" />
<glyph unicode="&#xaa;" d="M209 901q0 133 117.5 206t326.5 73h121v63q0 160 -203 160q-109 0 -249 -49l-46 119q162 61 318 61q168 0 254 -75t86 -212v-405q0 -45 16.5 -68.5t50.5 -34.5l-36 -110q-66 8 -108 36.5t-62 84.5q-49 -57 -122 -89t-153 -32q-139 0 -225 74.5t-86 197.5zM217 0v154h803 v-154h-803zM381 907q0 -78 46 -117.5t132 -39.5q61 0 117.5 30.5t97.5 83.5v203h-119q-274 0 -274 -160z" />
<glyph unicode="&#xab;" d="M170 539v123l358 428l103 -66l-277 -422l277 -422l-103 -65zM592 539v123l362 428l103 -66l-277 -422l277 -422l-103 -65z" />
<glyph unicode="&#xac;" d="M238 565v146h753v-435h-155v289h-598z" />
<glyph unicode="&#xad;" d="M295 567v148h639v-148h-639z" />
<glyph unicode="&#xae;" d="M96 1008q0 141 70 261t188.5 190.5t259.5 70.5q142 0 259.5 -70.5t187 -190.5t69.5 -261t-68.5 -260t-187 -189t-260.5 -70q-141 0 -259.5 70t-188.5 188.5t-70 260.5zM203 1008q0 -117 54 -213.5t148.5 -152.5t208.5 -56q115 0 209.5 56t147.5 152.5t53 213.5t-53 214 t-147.5 154.5t-209.5 57.5q-114 0 -208.5 -57.5t-148.5 -155t-54 -213.5zM412 725v578h174q250 -1 250 -173q0 -63 -37 -104t-101 -59l176 -242h-135l-153 223h-60v-223h-114zM526 1036h66q61 0 93 21.5t32 70.5q0 84 -129 84h-62v-176z" />
<glyph unicode="&#xaf;" d="M338 1384v132h551v-132h-551z" />
<glyph unicode="&#xb0;" d="M133 1214q0 98 47 170t123 111t162 39q88 0 164 -39t122 -111.5t46 -171.5q0 -98 -46 -170.5t-122 -110.5t-164 -38q-86 0 -162 38t-123 111.5t-47 171.5zM283 1214q0 -96 53 -148t129 -52q78 0 131 51t53 147q0 98 -53 149.5t-131 51.5q-76 0 -129 -51t-53 -148z" />
<glyph unicode="&#xb1;" d="M238 0v147h753v-147h-753zM238 651v144h294v305h164v-305h295v-144h-295v-317h-164v317h-294z" />
<glyph unicode="&#xb2;" d="M315 1169q61 72 139 109t164 37q129 0 201 -59.5t72 -157.5q0 -66 -33 -115t-104.5 -98.5t-208.5 -116.5h366l-18 -123h-567v106q193 119 267.5 168.5t108 88t33.5 83.5q0 47 -31.5 74t-89.5 27q-115 0 -194 -101z" />
<glyph unicode="&#xb3;" d="M301 751l94 78q47 -41 104.5 -61.5t116.5 -20.5q78 0 117 26t39 71q0 51 -36 73.5t-111 22.5h-95l17 88h69q131 0 132 84q0 90 -127 90q-111 0 -215 -78l-78 84q129 106 303 107q123 0 194.5 -49.5t71.5 -133.5q0 -57 -33 -89.5t-112 -47.5q92 -14 133 -49t41 -106 q0 -94 -84 -150.5t-232 -56.5q-88 0 -168 28.5t-141 89.5z" />
<glyph unicode="&#xb4;" d="M379 1372l379 236l90 -146l-412 -184z" />
<glyph unicode="&#xb5;" d="M182 -434v1511h170v-604q0 -123 12.5 -194.5t51.5 -111.5t119 -40q90 0 161.5 46t122.5 118v786h170v-735q1 -166 58 -342l-160 -25q-16 27 -31.5 80.5t-19.5 94.5q-47 -78 -127 -126.5t-162 -48.5t-127 24t-86 81q18 -133 18 -178v-316z" />
<glyph unicode="&#xb6;" d="M88 997q0 117 59.5 211.5t177 147.5t283.5 53h531v-1821l-156 -22v1702h-231v-1680l-156 -22v1026q-164 0 -278.5 53t-172 145.5t-57.5 206.5z" />
<glyph unicode="&#xb7;" d="M434 700q0 76 51.5 127.5t126.5 51.5q78 0 129.5 -51.5t51.5 -127.5q0 -78 -51.5 -129t-129.5 -51q-76 0 -127 51.5t-51 128.5z" />
<glyph unicode="&#xb8;" d="M381 -438l55 98q29 -14 67 -23.5t72 -9.5q57 0 90 20.5t33 65.5q0 51 -44 69.5t-134 18.5l19 232h116v-150q94 -8 141.5 -56t47.5 -114q0 -96 -72 -148t-176 -52q-61 0 -117.5 13t-97.5 36z" />
<glyph unicode="&#xb9;" d="M480 1128l295 174h114v-657h-141v489l-197 -106z" />
<glyph unicode="&#xba;" d="M197 1083q0 133 52 234.5t146 159t219 57.5q191 0 303.5 -122t112.5 -329q0 -133 -51 -236.5t-145.5 -160.5t-219.5 -57q-190 0 -303.5 124t-113.5 330zM213 0v154h805v-154h-805zM367 1083q0 -162 65.5 -242.5t181.5 -80.5q117 0 180.5 81t63.5 242q0 160 -63.5 240 t-180.5 80q-116 0 -181.5 -80t-65.5 -240z" />
<glyph unicode="&#xbb;" d="M170 180l276 422l-276 422l102 66l359 -428v-123l-359 -424zM592 180l278 422l-278 422l102 66l363 -428v-123l-363 -424z" />
<glyph unicode="&#xbc;" d="M0 1237l295 174h114v-657h-141v489l-197 -106zM28 485l1096 525l60 -109l-1094 -524zM602 115v98l279 465l124 -51l-235 -391h199l12 176h135v-176h115v-121h-115v-115h-147v115h-367z" />
<glyph unicode="&#xbd;" d="M-6 1237l295 174h114v-657h-141v489l-197 -106zM20 485l1096 525l60 -109l-1094 -524zM641 524q61 72 139 109t164 37q129 0 201 -59.5t72 -157.5q0 -66 -33 -115t-104.5 -98.5t-208.5 -116.5h366l-18 -123h-567v106q193 119 267.5 168.5t108 88t33.5 83.5q0 47 -31.5 74 t-89.5 27q-115 0 -194 -101z" />
<glyph unicode="&#xbe;" d="M-6 860l94 78q90 -82 221 -82q78 0 117 25.5t39 70.5q0 51 -36 74t-111 23h-95l17 86h69q131 0 132 84q0 92 -127 92q-111 0 -215 -80l-78 84q129 109 303 108q123 0 194.5 -49t71.5 -133q0 -57 -33 -90t-112 -47q90 -14 132 -49t42 -107q0 -94 -84 -150.5t-232 -56.5 q-88 0 -168 29t-141 90zM47 485l1096 525l60 -109l-1094 -524zM604 115v98l279 465l124 -51l-235 -391h199l12 176h135v-176h115v-121h-115v-115h-147v115h-367z" />
<glyph unicode="&#xbf;" d="M215 -117q0 78 25.5 132.5t63.5 90t102 80.5q90 63 135 121t45 156v72h170v-80q0 -84 -29 -145.5t-70 -100.5t-106 -90q-82 -63 -120 -109.5t-38 -115.5q0 -86 67.5 -135.5t176.5 -49.5q76 0 152.5 37t138.5 113l121 -90q-176 -203 -431 -203q-121 0 -212 45t-141 117.5 t-50 154.5zM528 883q0 59 39 98t97 39q57 0 97 -40t40 -97q0 -55 -40 -95t-97 -40t-96.5 39.5t-39.5 95.5z" />
<glyph unicode="&#xc0;" d="M43 0l459 1409h225l459 -1409h-185l-112 360h-559l-115 -360h-172zM375 506h469l-234 756zM379 1714l94 148l379 -224l-53 -90z" />
<glyph unicode="&#xc1;" d="M43 0l459 1409h225l459 -1409h-185l-112 360h-559l-115 -360h-172zM375 506h469l-234 756zM379 1638l405 215l76 -145l-436 -160z" />
<glyph unicode="&#xc2;" d="M43 0l459 1409h225l459 -1409h-185l-112 360h-559l-115 -360h-172zM281 1645l278 219h115l274 -219l-76 -89l-258 166l-256 -166zM375 506h469l-234 756z" />
<glyph unicode="&#xc3;" d="M43 0l459 1409h225l459 -1409h-185l-112 360h-559l-115 -360h-172zM281 1638q35 78 91 125t136 47q47 0 79.5 -16t67.5 -45q25 -18 41.5 -27.5t34.5 -9.5q31 0 54.5 21.5t50.5 68.5l110 -47q-33 -78 -89 -126t-136 -48q-47 0 -80 16.5t-70 44.5q-4 4 -20.5 15.5 t-29.5 16.5t-25 5q-31 0 -54.5 -21.5t-50.5 -68.5zM375 506h469l-234 756z" />
<glyph unicode="&#xc4;" d="M43 0l459 1409h225l459 -1409h-185l-112 360h-559l-115 -360h-172zM291 1679q0 49 31.5 80t80.5 31q47 0 78 -30.5t31 -80.5q0 -45 -30.5 -75.5t-78.5 -30.5q-47 0 -79.5 30.5t-32.5 75.5zM375 506h469l-234 756zM715 1679q0 49 31.5 80t78.5 31t79 -30.5t32 -80.5 q0 -45 -32 -75.5t-79 -30.5t-78.5 30.5t-31.5 75.5z" />
<glyph unicode="&#xc5;" d="M43 0l459 1409h225l459 -1409h-185l-112 360h-559l-115 -360h-172zM375 506h469l-234 756zM389 1720q0 88 63.5 148.5t161.5 60.5q99 0 163.5 -60.5t64.5 -148.5t-64.5 -148.5t-163.5 -60.5q-98 0 -161.5 60.5t-63.5 148.5zM504 1720q0 -53 30.5 -84.5t79.5 -31.5 q51 0 82 31.5t31 84.5t-30.5 85t-82.5 32q-49 0 -79.5 -31.5t-30.5 -85.5z" />
<glyph unicode="&#xc6;" d="M-25 0l414 1409h770l-20 -143h-486l107 -480h381v-143h-355l107 -500h352v-143h-495l-74 360h-420l-100 -360h-181zM303 508h340l-151 764z" />
<glyph unicode="&#xc7;" d="M131 707q0 229 81 394t218 249t303 84q133 0 226.5 -34t181.5 -104l-99 -114q-127 104 -297 104q-193 0 -312.5 -138t-119.5 -441q0 -299 118 -439.5t312 -140.5q106 0 183.5 31.5t144.5 87.5l90 -117q-150 -145 -403 -152v-94q94 -8 141 -56t47 -114q0 -96 -71.5 -148 t-176.5 -52q-61 0 -117.5 13t-97.5 36l56 98q29 -14 66.5 -23.5t72.5 -9.5q57 0 90 20.5t33 65.5q0 51 -44 69.5t-134 18.5l14 185q-150 25 -263.5 114.5t-178 244.5t-64.5 362z" />
<glyph unicode="&#xc8;" d="M258 0v1409h799l-21 -143h-602v-478h522v-145h-522v-502h641v-141h-817zM422 1714l94 148l379 -224l-53 -90z" />
<glyph unicode="&#xc9;" d="M258 0v1409h799l-21 -143h-602v-478h522v-145h-522v-502h641v-141h-817zM422 1638l405 215l76 -145l-436 -160z" />
<glyph unicode="&#xca;" d="M258 0v1409h799l-21 -143h-602v-478h522v-145h-522v-502h641v-141h-817zM324 1645l278 219h115l274 -219l-76 -89l-258 166l-256 -166z" />
<glyph unicode="&#xcb;" d="M258 0v1409h799l-21 -143h-602v-478h522v-145h-522v-502h641v-141h-817zM334 1679q0 49 31.5 80t80.5 31q47 0 78 -30.5t31 -80.5q0 -45 -30.5 -75.5t-78.5 -30.5q-47 0 -79.5 30.5t-32.5 75.5zM758 1679q0 49 31.5 80t78.5 31t79 -30.5t32 -80.5q0 -45 -32 -75.5 t-79 -30.5t-78.5 30.5t-31.5 75.5z" />
<glyph unicode="&#xcc;" d="M211 0v141h315v1129h-315v139h807v-139h-316v-1129h316v-141h-807zM379 1714l94 148l379 -224l-53 -90z" />
<glyph unicode="&#xcd;" d="M211 0v141h315v1129h-315v139h807v-139h-316v-1129h316v-141h-807zM379 1638l405 215l76 -145l-436 -160z" />
<glyph unicode="&#xce;" d="M211 0v141h315v1129h-315v139h807v-139h-316v-1129h316v-141h-807zM281 1645l278 219h115l274 -219l-76 -89l-258 166l-256 -166z" />
<glyph unicode="&#xcf;" d="M211 0v141h315v1129h-315v139h807v-139h-316v-1129h316v-141h-807zM291 1679q0 49 31.5 80t80.5 31q47 0 78 -30.5t31 -80.5q0 -45 -30.5 -75.5t-78.5 -30.5q-47 0 -79.5 30.5t-32.5 75.5zM715 1679q0 49 31.5 80t78.5 31t79 -30.5t32 -80.5q0 -45 -32 -75.5t-79 -30.5 t-78.5 30.5t-31.5 75.5z" />
<glyph unicode="&#xd0;" d="M41 655v136h149v618h302q294 0 476.5 -148.5t182.5 -547.5q0 -401 -184.5 -557t-452.5 -156h-324v655h-149zM367 141h170q182 0 304 126t122 446q0 229 -62.5 351t-155 162t-210.5 40h-168v-475h325v-136h-325v-514z" />
<glyph unicode="&#xd1;" d="M172 0v1409h238l499 -1212h9q-25 295 -25 505v707h164v-1409h-246l-492 1206h-8q25 -319 25 -497v-709h-164zM277 1638q35 78 91 125t136 47q47 0 79.5 -16t67.5 -45q25 -18 41.5 -27.5t34.5 -9.5q31 0 54.5 21.5t50.5 68.5l110 -47q-33 -78 -89 -126t-136 -48 q-47 0 -80 16.5t-70 44.5q-4 4 -20.5 15.5t-29.5 16.5t-25 5q-31 0 -54.5 -21.5t-50.5 -68.5z" />
<glyph unicode="&#xd2;" d="M96 700q0 217 59.5 382t175 258.5t283.5 93.5q250 0 384.5 -198t134.5 -531q0 -330 -134.5 -529t-384.5 -199q-252 0 -385 195t-133 528zM279 700q0 -285 81.5 -430t253.5 -145q174 0 255 145.5t81 434.5q0 288 -79.5 433.5t-256.5 145.5q-176 0 -255.5 -146.5 t-79.5 -437.5zM379 1714l94 148l379 -224l-53 -90z" />
<glyph unicode="&#xd3;" d="M96 700q0 217 59.5 382t175 258.5t283.5 93.5q250 0 384.5 -198t134.5 -531q0 -330 -134.5 -529t-384.5 -199q-252 0 -385 195t-133 528zM279 700q0 -285 81.5 -430t253.5 -145q174 0 255 145.5t81 434.5q0 288 -79.5 433.5t-256.5 145.5q-176 0 -255.5 -146.5 t-79.5 -437.5zM379 1638l405 215l76 -145l-436 -160z" />
<glyph unicode="&#xd4;" d="M96 700q0 217 59.5 382t175 258.5t283.5 93.5q250 0 384.5 -198t134.5 -531q0 -330 -134.5 -529t-384.5 -199q-252 0 -385 195t-133 528zM279 700q0 -285 81.5 -430t253.5 -145q174 0 255 145.5t81 434.5q0 288 -79.5 433.5t-256.5 145.5q-176 0 -255.5 -146.5 t-79.5 -437.5zM281 1645l278 219h115l274 -219l-76 -89l-258 166l-256 -166z" />
<glyph unicode="&#xd5;" d="M96 700q0 217 59.5 382t175 258.5t283.5 93.5q250 0 384.5 -198t134.5 -531q0 -330 -134.5 -529t-384.5 -199q-252 0 -385 195t-133 528zM279 700q0 -285 81.5 -430t253.5 -145q174 0 255 145.5t81 434.5q0 288 -79.5 433.5t-256.5 145.5q-176 0 -255.5 -146.5 t-79.5 -437.5zM281 1638q35 78 91 125t136 47q47 0 79.5 -16t67.5 -45q25 -18 41.5 -27.5t34.5 -9.5q31 0 54.5 21.5t50.5 68.5l110 -47q-33 -78 -89 -126t-136 -48q-47 0 -80 16.5t-70 44.5q-4 4 -20.5 15.5t-29.5 16.5t-25 5q-31 0 -54.5 -21.5t-50.5 -68.5z" />
<glyph unicode="&#xd6;" d="M96 700q0 217 59.5 382t175 258.5t283.5 93.5q250 0 384.5 -198t134.5 -531q0 -330 -134.5 -529t-384.5 -199q-252 0 -385 195t-133 528zM279 700q0 -285 81.5 -430t253.5 -145q174 0 255 145.5t81 434.5q0 288 -79.5 433.5t-256.5 145.5q-176 0 -255.5 -146.5 t-79.5 -437.5zM291 1679q0 49 31.5 80t80.5 31q47 0 78 -30.5t31 -80.5q0 -45 -30.5 -75.5t-78.5 -30.5q-47 0 -79.5 30.5t-32.5 75.5zM715 1679q0 49 31.5 80t78.5 31t79 -30.5t32 -80.5q0 -45 -32 -75.5t-79 -30.5t-78.5 30.5t-31.5 75.5z" />
<glyph unicode="&#xd7;" d="M256 377l252 252l-252 252l106 108l252 -254l252 254l107 -108l-252 -252l252 -252l-107 -107l-252 252l-252 -252z" />
<glyph unicode="&#xd8;" d="M96 700q0 217 59.5 382t175 258.5t283.5 93.5q68 0 134 -17l65 228l154 -39l-80 -254q121 -86 183.5 -254t62.5 -393q0 -330 -134.5 -529t-384.5 -199q-66 0 -131 17l-65 -219l-152 39l76 245q-121 86 -183.5 251t-62.5 390zM281 700q0 -194 29.5 -316t92.5 -185 l310 1073q-43 12 -99 12q-174 0 -253.5 -146.5t-79.5 -437.5zM514 137q45 -12 100 -12q174 0 254 145.5t80 434.5q0 199 -29.5 322.5t-95.5 184.5z" />
<glyph unicode="&#xd9;" d="M150 457v952h174v-960q0 -160 74.5 -240t213.5 -80q141 0 216 80t75 240v960h176v-952q0 -144 -57 -252.5t-162.5 -168t-247.5 -59.5q-141 0 -246.5 60.5t-160.5 169t-55 250.5zM379 1714l94 148l379 -224l-53 -90z" />
<glyph unicode="&#xda;" d="M150 457v952h174v-960q0 -160 74.5 -240t213.5 -80q141 0 216 80t75 240v960h176v-952q0 -144 -57 -252.5t-162.5 -168t-247.5 -59.5q-141 0 -246.5 60.5t-160.5 169t-55 250.5zM379 1638l405 215l76 -145l-436 -160z" />
<glyph unicode="&#xdb;" d="M150 457v952h174v-960q0 -160 74.5 -240t213.5 -80q141 0 216 80t75 240v960h176v-952q0 -144 -57 -252.5t-162.5 -168t-247.5 -59.5q-141 0 -246.5 60.5t-160.5 169t-55 250.5zM281 1645l278 219h115l274 -219l-76 -89l-258 166l-256 -166z" />
<glyph unicode="&#xdc;" d="M150 457v952h174v-960q0 -160 74.5 -240t213.5 -80q141 0 216 80t75 240v960h176v-952q0 -144 -57 -252.5t-162.5 -168t-247.5 -59.5q-141 0 -246.5 60.5t-160.5 169t-55 250.5zM291 1679q0 49 31.5 80t80.5 31q47 0 78 -30.5t31 -80.5q0 -45 -30.5 -75.5t-78.5 -30.5 q-47 0 -79.5 30.5t-32.5 75.5zM715 1679q0 49 31.5 80t78.5 31t79 -30.5t32 -80.5q0 -45 -32 -75.5t-79 -30.5t-78.5 30.5t-31.5 75.5z" />
<glyph unicode="&#xdd;" d="M49 1409h195l374 -707l379 707h183l-478 -864v-545h-176v543zM385 1638l405 215l76 -145l-436 -160z" />
<glyph unicode="&#xde;" d="M221 0v1409h174v-238h205q260 0 398.5 -110.5t138.5 -333.5q0 -238 -144.5 -351.5t-394.5 -113.5h-203v-262h-174zM395 403h228q158 0 243.5 73t85.5 247q0 160 -88 234.5t-243 74.5h-226v-629z" />
<glyph unicode="&#xdf;" d="M197 0v1092q0 215 108.5 328.5t302.5 113.5q158 0 256.5 -82t98.5 -213q0 -76 -36 -124t-102 -101q-47 -39 -71.5 -69t-24.5 -66q0 -51 37 -86t121 -91q80 -51 131 -93t88 -108.5t37 -158.5q0 -115 -51.5 -198t-138.5 -125t-193 -42q-154 0 -264 70l69 117q39 -23 88 -36 t92 -13q104 0 164 55t60 162q0 88 -51.5 143t-151.5 117q-68 43 -109 75.5t-68.5 80t-27.5 110.5q0 68 34 113t97 94q55 45 82 78t27 80q0 68 -46 121t-149 53q-119 0 -179 -68.5t-60 -224.5v-1104h-170z" />
<glyph unicode="&#xe0;" d="M141 309q0 166 130 256t376 90h158v90q0 113 -65.5 163t-190.5 50q-129 0 -281 -53l-45 127q186 70 350 70q197 0 300.5 -92t103.5 -256v-521q0 -61 20.5 -91.5t67.5 -45.5l-41 -121q-154 20 -197 154q-57 -74 -144 -113t-194 -39q-162 0 -255 90.5t-93 241.5zM324 311 q0 -205 208 -205q80 0 153 40t120 114v279h-156q-172 0 -248.5 -58.5t-76.5 -169.5zM363 1464l90 148l379 -240l-55 -94z" />
<glyph unicode="&#xe1;" d="M141 309q0 166 130 256t376 90h158v90q0 113 -65.5 163t-190.5 50q-129 0 -281 -53l-45 127q186 70 350 70q197 0 300.5 -92t103.5 -256v-521q0 -61 20.5 -91.5t67.5 -45.5l-41 -121q-154 20 -197 154q-57 -74 -144 -113t-194 -39q-162 0 -255 90.5t-93 241.5zM324 311 q0 -205 208 -205q80 0 153 40t120 114v279h-156q-172 0 -248.5 -58.5t-76.5 -169.5zM363 1372l379 236l90 -146l-412 -184z" />
<glyph unicode="&#xe2;" d="M141 309q0 166 130 256t376 90h158v90q0 113 -65.5 163t-190.5 50q-129 0 -281 -53l-45 127q186 70 350 70q197 0 300.5 -92t103.5 -256v-521q0 -61 20.5 -91.5t67.5 -45.5l-41 -121q-154 20 -197 154q-57 -74 -144 -113t-194 -39q-162 0 -255 90.5t-93 241.5zM265 1372 l278 244h115l274 -244l-78 -84l-254 187l-254 -187zM324 311q0 -205 208 -205q80 0 153 40t120 114v279h-156q-172 0 -248.5 -58.5t-76.5 -169.5z" />
<glyph unicode="&#xe3;" d="M141 309q0 166 130 256t376 90h158v90q0 113 -65.5 163t-190.5 50q-129 0 -281 -53l-45 127q186 70 350 70q197 0 300.5 -92t103.5 -256v-521q0 -61 20.5 -91.5t67.5 -45.5l-41 -121q-154 20 -197 154q-57 -74 -144 -113t-194 -39q-162 0 -255 90.5t-93 241.5zM265 1395 q76 172 227 172q47 0 80 -16.5t67 -45.5q25 -18 41.5 -27.5t34.5 -9.5q31 0 54.5 21.5t50.5 69.5l110 -50q-80 -174 -227 -174q-45 0 -78 16.5t-68 45.5q-25 20 -42 29.5t-35 9.5q-31 0 -54.5 -21.5t-50.5 -68.5zM324 311q0 -205 208 -205q80 0 153 40t120 114v279h-156 q-172 0 -248.5 -58.5t-76.5 -169.5z" />
<glyph unicode="&#xe4;" d="M141 309q0 166 130 256t376 90h158v90q0 113 -65.5 163t-190.5 50q-129 0 -281 -53l-45 127q186 70 350 70q197 0 300.5 -92t103.5 -256v-521q0 -61 20.5 -91.5t67.5 -45.5l-41 -121q-154 20 -197 154q-57 -74 -144 -113t-194 -39q-162 0 -255 90.5t-93 241.5zM275 1436 q0 47 31.5 78.5t78.5 31.5t79 -31.5t32 -78.5q0 -45 -31.5 -77t-79.5 -32q-47 0 -78.5 31t-31.5 78zM324 311q0 -205 208 -205q80 0 153 40t120 114v279h-156q-172 0 -248.5 -58.5t-76.5 -169.5zM699 1436q0 47 30.5 78.5t77.5 31.5q49 0 81 -31.5t32 -78.5t-32 -78t-81 -31 q-45 0 -76.5 32t-31.5 77z" />
<glyph unicode="&#xe5;" d="M141 309q0 166 130 256t376 90h158v90q0 113 -65.5 163t-190.5 50q-129 0 -281 -53l-45 127q186 70 350 70q197 0 300.5 -92t103.5 -256v-521q0 -61 20.5 -91.5t67.5 -45.5l-41 -121q-154 20 -197 154q-57 -74 -144 -113t-194 -39q-162 0 -255 90.5t-93 241.5zM324 311 q0 -205 208 -205q80 0 153 40t120 114v279h-156q-172 0 -248.5 -58.5t-76.5 -169.5zM371 1475q0 90 64.5 150.5t162.5 60.5q99 0 163.5 -60.5t64.5 -150.5q0 -86 -64.5 -146.5t-163.5 -60.5q-98 0 -162.5 60.5t-64.5 146.5zM488 1475q0 -53 29.5 -84t80.5 -31t81 30.5 t30 84.5q0 55 -28.5 85.5t-82.5 30.5q-51 0 -80.5 -30.5t-29.5 -85.5z" />
<glyph unicode="&#xe6;" d="M-12 309q0 168 111.5 257t326.5 89h94v90q0 213 -186 213q-53 0 -98.5 -12t-116.5 -43l-45 129q145 70 276 70q117 0 182.5 -46t100.5 -134q29 84 95.5 132t162.5 48q178 0 265 -138.5t87 -392.5q0 -45 -4 -94h-553q14 -184 69.5 -270t162.5 -86q57 0 102 19.5t102 60.5 l78 -117q-66 -53 -133.5 -80t-151.5 -27q-104 0 -176.5 46.5t-126.5 136.5q-72 -98 -142.5 -140.5t-170.5 -42.5q-143 0 -227 90.5t-84 241.5zM172 319q0 -102 41 -156t111 -54q66 0 115.5 47t109.5 151q-29 94 -29 232h-88q-139 0 -199.5 -57.5t-60.5 -162.5zM686 610h389 q-4 178 -46 263t-144 85q-94 0 -139.5 -78.5t-59.5 -269.5z" />
<glyph unicode="&#xe7;" d="M188 535q0 164 60.5 291.5t174.5 201.5t271 74q205 0 361 -127l-86 -117q-133 100 -277 100q-145 0 -232 -108.5t-87 -314.5q0 -207 87 -309.5t232 -102.5q154 0 283 102l82 -119q-61 -53 -147.5 -85.5t-174.5 -40.5v-97q94 -8 141.5 -56t47.5 -114q0 -96 -72 -148 t-176 -52q-61 0 -117.5 13t-97.5 36l55 98q29 -14 67 -23.5t72 -9.5q57 0 90 20.5t33 65.5q0 51 -44 69.5t-134 18.5l14 181q-203 25 -314.5 172t-111.5 381z" />
<glyph unicode="&#xe8;" d="M162 539q0 162 57 289.5t162.5 200.5t243.5 73q209 0 326.5 -142.5t117.5 -388.5q0 -47 -4 -92h-725q6 -180 94 -270t221 -90q164 0 289 100l80 -117q-76 -59 -173 -92t-196 -33q-233 0 -363 153t-130 409zM340 610h565q-2 172 -75.5 261.5t-202.5 89.5 q-121 0 -199 -89.5t-88 -261.5zM399 1464l90 148l379 -240l-55 -94z" />
<glyph unicode="&#xe9;" d="M162 539q0 162 57 289.5t162.5 200.5t243.5 73q209 0 326.5 -142.5t117.5 -388.5q0 -47 -4 -92h-725q6 -180 94 -270t221 -90q164 0 289 100l80 -117q-76 -59 -173 -92t-196 -33q-233 0 -363 153t-130 409zM340 610h565q-2 172 -75.5 261.5t-202.5 89.5 q-121 0 -199 -89.5t-88 -261.5zM399 1372l379 236l90 -146l-412 -184z" />
<glyph unicode="&#xea;" d="M162 539q0 162 57 289.5t162.5 200.5t243.5 73q209 0 326.5 -142.5t117.5 -388.5q0 -47 -4 -92h-725q6 -180 94 -270t221 -90q164 0 289 100l80 -117q-76 -59 -173 -92t-196 -33q-233 0 -363 153t-130 409zM301 1372l278 244h115l274 -244l-78 -84l-254 187l-254 -187z M340 610h565q-2 172 -75.5 261.5t-202.5 89.5q-121 0 -199 -89.5t-88 -261.5z" />
<glyph unicode="&#xeb;" d="M162 539q0 162 57 289.5t162.5 200.5t243.5 73q209 0 326.5 -142.5t117.5 -388.5q0 -47 -4 -92h-725q6 -180 94 -270t221 -90q164 0 289 100l80 -117q-76 -59 -173 -92t-196 -33q-233 0 -363 153t-130 409zM311 1436q0 47 31.5 78.5t78.5 31.5t79 -31.5t32 -78.5 q0 -45 -31.5 -77t-79.5 -32q-47 0 -78.5 31t-31.5 78zM340 610h565q-2 172 -75.5 261.5t-202.5 89.5q-121 0 -199 -89.5t-88 -261.5zM735 1436q0 47 30.5 78.5t77.5 31.5q49 0 81 -31.5t32 -78.5t-32 -78t-81 -31q-45 0 -76.5 32t-31.5 77z" />
<glyph unicode="&#xec;" d="M248 0v135h334v809h-324v133h494v-942h303v-135h-807zM381 1464l90 148l379 -240l-55 -94z" />
<glyph unicode="&#xed;" d="M248 0v135h334v809h-324v133h494v-942h303v-135h-807zM381 1372l379 236l90 -146l-412 -184z" />
<glyph unicode="&#xee;" d="M248 0v135h334v809h-324v133h494v-942h303v-135h-807zM283 1372l278 244h115l274 -244l-78 -84l-254 187l-254 -187z" />
<glyph unicode="&#xef;" d="M248 0v135h334v809h-324v133h494v-942h303v-135h-807zM293 1436q0 47 31.5 78.5t78.5 31.5t79 -31.5t32 -78.5q0 -45 -31.5 -77t-79.5 -32q-47 0 -78.5 31t-31.5 78zM717 1436q0 47 30.5 78.5t77.5 31.5q49 0 81 -31.5t32 -78.5t-32 -78t-81 -31q-45 0 -76.5 32t-31.5 77 z" />
<glyph unicode="&#xf0;" d="M137 481q0 147 59.5 262t160 178.5t216.5 63.5q201 0 324 -141q-27 127 -96.5 232.5t-169.5 178.5l-162 -165l-121 61l166 174q-95 45 -240 74l37 135q197 -43 307 -102l142 151l104 -90l-127 -131q180 -125 266.5 -326.5t86.5 -496.5q0 -170 -60.5 -297t-170 -196 t-255.5 -69q-131 0 -237.5 59.5t-168 173.5t-61.5 271zM311 489q0 -178 80 -276t211 -98q147 0 231.5 111.5t84.5 320.5q-1 72 -7 135q-51 80 -134 123t-183 43q-121 0 -202 -91t-81 -268z" />
<glyph unicode="&#xf1;" d="M207 0v1077h145l13 -149q66 82 162 128t194 46q303 0 303 -320v-782h-170v655q0 121 -12.5 185.5t-52 95.5t-119.5 31q-88 0 -167 -53.5t-126 -127.5v-786h-170zM281 1399q76 172 227 172q47 0 80 -16.5t67 -45.5q25 -18 41.5 -27.5t34.5 -9.5q31 0 54.5 21.5t50.5 69.5 l110 -50q-80 -174 -227 -174q-45 0 -78 16.5t-68 45.5q-25 20 -42 29.5t-35 9.5q-31 0 -54.5 -21.5t-50.5 -68.5z" />
<glyph unicode="&#xf2;" d="M152 539q0 256 121.5 409.5t342.5 153.5q224 0 342.5 -150.5t118.5 -410.5q0 -254 -120.5 -409t-342.5 -155q-223 0 -342.5 151t-119.5 411zM334 539q0 -213 69.5 -317.5t210.5 -104.5t211 104.5t70 319.5q0 422 -279 422q-282 0 -282 -424zM379 1464l90 148l379 -240 l-55 -94z" />
<glyph unicode="&#xf3;" d="M152 539q0 256 121.5 409.5t342.5 153.5q224 0 342.5 -150.5t118.5 -410.5q0 -254 -120.5 -409t-342.5 -155q-223 0 -342.5 151t-119.5 411zM334 539q0 -213 69.5 -317.5t210.5 -104.5t211 104.5t70 319.5q0 422 -279 422q-282 0 -282 -424zM379 1372l379 236l90 -146 l-412 -184z" />
<glyph unicode="&#xf4;" d="M152 539q0 256 121.5 409.5t342.5 153.5q224 0 342.5 -150.5t118.5 -410.5q0 -254 -120.5 -409t-342.5 -155q-223 0 -342.5 151t-119.5 411zM281 1372l278 244h115l274 -244l-78 -84l-254 187l-254 -187zM334 539q0 -213 69.5 -317.5t210.5 -104.5t211 104.5t70 319.5 q0 422 -279 422q-282 0 -282 -424z" />
<glyph unicode="&#xf5;" d="M152 539q0 256 121.5 409.5t342.5 153.5q224 0 342.5 -150.5t118.5 -410.5q0 -254 -120.5 -409t-342.5 -155q-223 0 -342.5 151t-119.5 411zM281 1395q76 172 227 172q47 0 80 -16.5t67 -45.5q25 -18 41.5 -27.5t34.5 -9.5q31 0 54.5 21.5t50.5 69.5l110 -50 q-80 -174 -227 -174q-45 0 -78 16.5t-68 45.5q-25 20 -42 29.5t-35 9.5q-31 0 -54.5 -21.5t-50.5 -68.5zM334 539q0 -213 69.5 -317.5t210.5 -104.5t211 104.5t70 319.5q0 422 -279 422q-282 0 -282 -424z" />
<glyph unicode="&#xf6;" d="M152 539q0 256 121.5 409.5t342.5 153.5q224 0 342.5 -150.5t118.5 -410.5q0 -254 -120.5 -409t-342.5 -155q-223 0 -342.5 151t-119.5 411zM291 1436q0 47 31.5 78.5t78.5 31.5t79 -31.5t32 -78.5q0 -45 -31.5 -77t-79.5 -32q-47 0 -78.5 31t-31.5 78zM334 539 q0 -213 69.5 -317.5t210.5 -104.5t211 104.5t70 319.5q0 422 -279 422q-282 0 -282 -424zM715 1436q0 47 30.5 78.5t77.5 31.5q49 0 81 -31.5t32 -78.5t-32 -78t-81 -31q-45 0 -76.5 32t-31.5 77z" />
<glyph unicode="&#xf7;" d="M238 565v146h753v-146h-753zM477 238q0 57 40 97t97 40q58 0 98 -40t40 -97t-40 -97.5t-98 -40.5q-57 0 -97 40t-40 98zM477 1040q0 55 40 95.5t97 40.5q58 0 98 -40t40 -96q0 -57 -40 -96t-98 -39q-57 0 -97 39t-40 96z" />
<glyph unicode="&#xf8;" d="M152 539q0 256 121.5 409.5t342.5 153.5q45 0 101 -10l78 247l143 -41l-84 -258q109 -65 166 -195t57 -304q0 -254 -120.5 -409t-342.5 -155q-47 0 -102 11l-76 -254l-143 41l86 264q-109 66 -168 194.5t-59 305.5zM334 539q0 -274 108 -367l242 782q-31 6 -68 7 q-282 0 -282 -422zM547 123q31 -6 67 -6q142 0 211.5 104.5t69.5 319.5q0 268 -107 362z" />
<glyph unicode="&#xf9;" d="M207 293v784h170v-764q0 -104 44 -152t138 -48q86 0 167 50t126 122v792h170v-1077h-145l-15 145q-61 -80 -154.5 -124t-189.5 -44q-154 0 -232.5 82t-78.5 234zM379 1464l90 148l379 -240l-55 -94z" />
<glyph unicode="&#xfa;" d="M207 293v784h170v-764q0 -104 44 -152t138 -48q86 0 167 50t126 122v792h170v-1077h-145l-15 145q-61 -80 -154.5 -124t-189.5 -44q-154 0 -232.5 82t-78.5 234zM379 1372l379 236l90 -146l-412 -184z" />
<glyph unicode="&#xfb;" d="M207 293v784h170v-764q0 -104 44 -152t138 -48q86 0 167 50t126 122v792h170v-1077h-145l-15 145q-61 -80 -154.5 -124t-189.5 -44q-154 0 -232.5 82t-78.5 234zM281 1372l278 244h115l274 -244l-78 -84l-254 187l-254 -187z" />
<glyph unicode="&#xfc;" d="M207 293v784h170v-764q0 -104 44 -152t138 -48q86 0 167 50t126 122v792h170v-1077h-145l-15 145q-61 -80 -154.5 -124t-189.5 -44q-154 0 -232.5 82t-78.5 234zM291 1436q0 47 31.5 78.5t78.5 31.5t79 -31.5t32 -78.5q0 -45 -31.5 -77t-79.5 -32q-47 0 -78.5 31 t-31.5 78zM715 1436q0 47 30.5 78.5t77.5 31.5q49 0 81 -31.5t32 -78.5t-32 -78t-81 -31q-45 0 -76.5 32t-31.5 77z" />
<glyph unicode="&#xfd;" d="M127 1077h182l312 -948l305 948h176l-379 -1083q-66 -187 -174.5 -297.5t-304.5 -130.5l-27 137q109 18 173.5 55t102 93.5t68.5 148.5h-57zM379 1372l379 236l90 -146l-412 -184z" />
<glyph unicode="&#xfe;" d="M207 -434v1947l170 21v-590q57 76 138 117t173 41q205 0 297 -146.5t92 -414.5q0 -256 -106.5 -410t-308.5 -154q-176 0 -285 123v-514zM377 254q41 -63 106.5 -99t141.5 -36q135 0 202.5 103.5t67.5 318.5q0 213 -60.5 318.5t-187.5 105.5q-84 0 -152.5 -49.5 t-117.5 -124.5v-537z" />
<glyph unicode="&#xff;" d="M127 1077h182l312 -948l305 948h176l-379 -1083q-66 -187 -174.5 -297.5t-304.5 -130.5l-27 137q109 18 173.5 55t102 93.5t68.5 148.5h-57zM291 1436q0 47 31.5 78.5t78.5 31.5t79 -31.5t32 -78.5q0 -45 -31.5 -77t-79.5 -32q-47 0 -78.5 31t-31.5 78zM715 1436 q0 47 30.5 78.5t77.5 31.5q49 0 81 -31.5t32 -78.5t-32 -78t-81 -31q-45 0 -76.5 32t-31.5 77z" />
<glyph unicode="&#x152;" d="M-2 700q0 358 109.5 546t324.5 188q76 0 146 -25h667l-20 -143h-500q119 -141 133 -480h316v-143h-316q-8 -348 -141 -500h549v-143h-693q-74 -23 -141 -23q-434 0 -434 723zM186 700q0 -307 60.5 -443t185.5 -136q131 0 191.5 136t60.5 448q0 311 -59.5 447t-192.5 136 q-127 0 -186.5 -138t-59.5 -450z" />
<glyph unicode="&#x153;" d="M-4 539q0 262 85 412.5t261 150.5q121 0 187.5 -54.5t105.5 -158.5q84 213 285 213q340 -1 340 -531q0 -45 -5 -94h-538q14 -186 66.5 -271t158.5 -85q55 0 98 18.5t99 61.5l80 -117q-66 -53 -132.5 -80t-146.5 -27q-113 0 -189.5 53.5t-117.5 153.5 q-41 -100 -108.5 -153.5t-182.5 -53.5q-174 0 -260 148.5t-86 413.5zM178 539q0 -223 43 -322.5t141 -99.5q68 0 108 42t57.5 133t17.5 249q0 219 -42 321.5t-141 102.5q-98 0 -141 -103.5t-43 -322.5zM717 610h377q-4 180 -43 264t-136 84q-94 0 -140 -78.5t-58 -269.5z " />
<glyph unicode="&#x178;" d="M49 1409h195l374 -707l379 707h183l-478 -864v-545h-176v543zM297 1679q0 49 31.5 80t80.5 31q47 0 78 -30.5t31 -80.5q0 -45 -30.5 -75.5t-78.5 -30.5q-47 0 -79.5 30.5t-32.5 75.5zM721 1679q0 49 31.5 80t78.5 31t79 -30.5t32 -80.5q0 -45 -32 -75.5t-79 -30.5 t-78.5 30.5t-31.5 75.5z" />
<glyph unicode="&#x2c6;" d="M281 1372l278 244h115l274 -244l-78 -84l-254 187l-254 -187z" />
<glyph unicode="&#x2dc;" d="M281 1395q76 172 227 172q47 0 80 -16.5t67 -45.5q25 -18 41.5 -27.5t34.5 -9.5q31 0 54.5 21.5t50.5 69.5l110 -50q-80 -174 -227 -174q-45 0 -78 16.5t-68 45.5q-25 20 -42 29.5t-35 9.5q-31 0 -54.5 -21.5t-50.5 -68.5z" />
<glyph unicode="&#x2000;" horiz-adv-x="964" />
<glyph unicode="&#x2001;" horiz-adv-x="1929" />
<glyph unicode="&#x2002;" horiz-adv-x="964" />
<glyph unicode="&#x2003;" horiz-adv-x="1929" />
<glyph unicode="&#x2004;" horiz-adv-x="643" />
<glyph unicode="&#x2005;" horiz-adv-x="482" />
<glyph unicode="&#x2006;" horiz-adv-x="321" />
<glyph unicode="&#x2007;" horiz-adv-x="321" />
<glyph unicode="&#x2008;" horiz-adv-x="241" />
<glyph unicode="&#x2009;" horiz-adv-x="385" />
<glyph unicode="&#x200a;" horiz-adv-x="107" />
<glyph unicode="&#x2010;" d="M256 567v148h717v-148h-717z" />
<glyph unicode="&#x2011;" d="M256 567v148h717v-148h-717z" />
<glyph unicode="&#x2012;" d="M256 567v148h717v-148h-717z" />
<glyph unicode="&#x2013;" d="M68 567v148h1093v-148h-1093z" />
<glyph unicode="&#x2014;" d="M0 567v148h1229v-148h-1229z" />
<glyph unicode="&#x2018;" d="M446 1128q0 59 35 134l168 354h133l-82 -377q25 -16 39.5 -46t14.5 -65q0 -63 -45 -106t-111 -43q-63 0 -107.5 43t-44.5 106z" />
<glyph unicode="&#x2019;" d="M444 979l82 377q-25 16 -39 46t-14 64q0 62 46 106t110 44q63 0 108 -43t45 -107q0 -31 -7 -58.5t-30 -74.5l-167 -354h-134z" />
<glyph unicode="&#x201a;" d="M444 -373l82 377q-25 16 -39 46t-14 65q0 61 46 105t108 44q66 0 110.5 -43t44.5 -106q0 -29 -7 -57.5t-30 -75.5l-167 -355h-134z" />
<glyph unicode="&#x201c;" d="M225 1128q0 59 35 134l166 354h135l-82 -377q25 -16 39 -46t14 -65q0 -63 -45 -106t-108 -43q-66 0 -110 43t-44 106zM668 1128q0 59 34 134l168 354h134l-82 -377q25 -16 39 -46t14 -65q0 -61 -46 -105t-110 -44q-63 0 -107 43t-44 106z" />
<glyph unicode="&#x201d;" d="M223 977l80 375q-25 18 -38 48t-13 64q0 62 46 106t108 44q66 0 110.5 -43t44.5 -107q0 -29 -8 -56.5t-31 -76.5l-166 -354h-133zM666 977l82 375q-25 18 -39.5 48t-14.5 64q0 62 46 106t108 44q66 0 111 -43t45 -107q0 -31 -7.5 -58.5t-29.5 -74.5l-168 -354h-133z" />
<glyph unicode="&#x201e;" d="M225 -373l82 377q-25 16 -39 46t-14 65q0 61 46 105t110 44q63 0 108 -43t45 -106q0 -29 -7 -57.5t-30 -75.5l-168 -355h-133zM666 -373l82 377q-25 16 -39.5 46t-14.5 65q0 61 46 105t108 44q66 0 109.5 -43t43.5 -106q0 -59 -34 -133l-168 -355h-133z" />
<glyph unicode="&#x2022;" d="M367 700q0 106 69.5 176t177.5 70q109 0 178.5 -69.5t69.5 -178.5q0 -106 -69.5 -175.5t-178.5 -69.5q-106 0 -176.5 70.5t-70.5 176.5z" />
<glyph unicode="&#x2026;" d="M66 117q0 57 39.5 97t97.5 40q59 0 99 -40t40 -97q0 -59 -40 -99.5t-99 -40.5q-57 0 -97 40t-40 100zM475 117q0 57 41 97t98 40t97.5 -40t40.5 -97q0 -59 -40 -99.5t-98 -40.5q-57 0 -98 41t-41 99zM887 117q0 57 40 97t97 40q59 0 99 -40t40 -97q0 -59 -40 -99.5 t-99 -40.5q-57 0 -97 40t-40 100z" />
<glyph unicode="&#x202f;" horiz-adv-x="385" />
<glyph unicode="&#x2039;" d="M387 539v123l354 428l101 -64l-275 -424l275 -424l-101 -63z" />
<glyph unicode="&#x203a;" d="M387 178l275 424l-275 424l100 64l355 -428v-123l-355 -424z" />
<glyph unicode="&#x205f;" horiz-adv-x="482" />
<glyph unicode="&#x20ac;" d="M72 498l30 120h148l2 189h-180l28 119h168q43 242 181.5 375t330.5 133q101 0 177.5 -24t148.5 -71l-86 -122q-106 70 -234 69q-139 0 -225 -86t-115 -274h504l-28 -119h-488v-189h447l-29 -120h-412q25 -195 106 -285t230 -90q88 0 163 29.5t126 74.5v-176 q-121 -74 -295 -74q-213 0 -342 133.5t-164 387.5h-192z" />
<glyph unicode="&#x2122;" d="M27 1296v113h739l106 -575l89 575h194l31 -799h-123l-21 477q-4 86 -4 138q0 43 2 63h-6l-96 -602h-133l-117 602h-6q2 -31 2 -98q0 -68 -2 -100l-18 -480h-117l28 686h-219v-686h-127v686h-202z" />
<glyph unicode="&#x25fc;" horiz-adv-x="1075" d="M0 0v1075h1075v-1075h-1075z" />
<glyph unicode="&#xfb01;" d="M41 944v133h186v133q0 96 52.5 170t143.5 114t202 40q154 0 293 -59l-58 -127q-96 47 -229 47q-231 0 -232 -181v-137h609v-942h192v-135h-557v135h193v809h-437v-944h-172v944h-186z" />
<glyph unicode="&#xfb02;" d="M29 944v133h186v133q0 96 52 170t143.5 114t203.5 40q100 0 201 -37l152 33v-1284q0 -70 26.5 -98.5t79.5 -28.5q49 0 111 22l47 -121q-43 -20 -84 -31.5t-98 -11.5q-115 0 -183.5 64.5t-68.5 198.5v1132q-82 20 -174 21q-236 0 -236 -179v-137h262l-22 -133h-240v-944 h-172v944h-186z" />
</font>
</defs>
</svg>
